<?xml version="1.0" standalone="no"?>
<!DOCTYPE svg PUBLIC "-//W3C//DTD SVG 1.1//EN" "http://www.w3.org/Graphics/SVG/1.1/DTD/svg11.dtd" >
<svg xmlns="http://www.w3.org/2000/svg">
<metadata>Generated by IcoMoon</metadata>
<defs>
<font id="icomoon" horiz-adv-x="1024">
<font-face units-per-em="1024" ascent="960" descent="-64" />
<missing-glyph horiz-adv-x="1024" />
<glyph unicode="&#x20;" horiz-adv-x="512" d="" />
<glyph unicode="&#xe900;" glyph-name="icon_contact" d="M907.093 320h-192.853c-5.597 0.894-12.050 1.404-18.622 1.404-28.61 0-54.96-9.677-75.956-25.936l0.285 0.212c-14.007-14.549-22.634-34.362-22.634-56.191 0-0.645 0.008-1.289 0.023-1.931l-0.002 0.095c-154.513 20.152-275.528 141.167-295.496 293.958l-0.184 1.722c0.677-0.020 1.472-0.032 2.271-0.032 21.617 0 41.258 8.461 55.791 22.252l-0.036-0.034c16.081 20.724 25.779 47.1 25.779 75.742 0 6.699-0.53 13.274-1.552 19.685l0.093-0.707v192.853c0.894 5.597 1.404 12.050 1.404 18.622 0 28.61-9.677 54.96-25.936 75.956l0.212-0.285c-14.806 14.063-34.872 22.713-56.957 22.713-1.427 0-2.845-0.036-4.254-0.107l0.198 0.008h-170.667c-70.692 0-128-57.308-128-128v0-170.667c0-400.591 324.743-725.333 725.333-725.333v0h170.667c70.692 0 128 57.308 128 128v0 170.667c0.063 1.211 0.099 2.629 0.099 4.056 0 22.086-8.65 42.151-22.747 56.993l0.034-0.036c-21.109 15.942-47.79 25.533-76.711 25.533-6.201 0-12.3-0.441-18.266-1.293l0.683 0.080zM938.667 64c0-23.564-19.103-42.667-42.667-42.667v0h-170.667c-353.462 0-640 286.538-640 640v0 170.667c0 23.564 19.103 42.667 42.667 42.667v0h170.667c0.317-4.657 0.497-10.094 0.497-15.573s-0.181-10.916-0.536-16.306l0.039 0.732v-193.707c0.317-4.657 0.497-10.094 0.497-15.573s-0.181-10.916-0.536-16.306l0.039 0.732h-85.333v-42.667c0-235.641 191.025-426.667 426.667-426.667v0h42.667v85.333c4.657 0.317 10.094 0.497 15.573 0.497s10.916-0.181 16.306-0.536l-0.732 0.039h193.707c9.813 0 23.040 0 31.147 0zM725.333 960c-164.949 0-298.667-133.718-298.667-298.667s133.718-298.667 298.667-298.667c164.949 0 298.667 133.718 298.667 298.667v0c0 164.949-133.718 298.667-298.667 298.667v0zM725.333 448c-117.821 0-213.333 95.513-213.333 213.333s95.513 213.333 213.333 213.333c117.821 0 213.333-95.513 213.333-213.333v0c0-117.821-95.513-213.333-213.333-213.333v0zM767.573 832h-85.333v-188.16l98.133-98.133 60.16 60.587-72.96 72.533v153.173z" />
<glyph unicode="&#xe901;" glyph-name="icon_product_category_1" horiz-adv-x="1136" d="M1028.894 336.465h-3.752l-3.507-1.387c-70.632-29.117-151.541-62.557-194.605-80.746-12.815 20.717-33.878 35.288-58.493 39.169l-0.476 0.062-280.244 12.234c-104.398 28.873-182.534 39.802-258.549 39.72h-199.662v-40.047h239.545c60.845 0 151.948-22.674 210.265-38.905l2.202-0.571 280.326-12.153c28.302-5.954 37.192-26.507 36.050-43.961-0.979-15.578-10.848-32.624-30.014-34.011-24.876-1.55-93.795-5.791-163.122-9.869-43.391-2.528-86.944-4.975-119.976-6.606l-117.366-5.954 112.636-33.522c15.333-4.567 77.646-17.78 95.997-16.883l-1.060 20.88 30.178 1.713c86.781 5.057 173.562 10.521 174.867 10.603v0.652c32.583 7.639 56.665 35.921 57.823 70.018l0.003 0.124c0 2.692 0 5.465 0 8.156 40.781 17.373 129.764 53.993 194.523 80.746 8.086-0.804 15.16-4.599 20.2-10.246l0.027-0.030c7.177-9.135 8.156-25.284 3.344-46.653-20.227-86.455-368.085-257.733-449.891-262.872v0c-45.266-3.018-409.518 86.699-462.288 103.012-1.738 0.604-3.741 0.954-5.825 0.954-0.505 0-1.005-0.020-1.499-0.061l0.065 0.004c-9.706-0.571-31.809-7.259-107.008-36.376v-42.983c43.798 16.72 92.735 35.234 106.845 38.66 56.44-16.312 417.838-106.029 472.076-103.256v0c86.047 5.22 460.331 182.534 486.512 293.62 8.156 34.582 4.323 61.905-11.255 81.561-13.355 15.465-32.986 25.195-54.889 25.202h-0.001zM785.923 791.25l-176.090 142.161c-18.433 14.273-34.174 26.589-72.426 26.589h-160.92c-54.483 0-72.834-10.766-91.022-24.468l-4.894-3.67c-16.312-11.826-103.583-106.111-130.008-134.984l-22.103-5.057h-7.177v-1.55l-103.746-23.245-17.536-53.667 30.667-195.747 106.029-41.841c16.569-42.439 57.13-71.958 104.586-71.958 45.596 0 84.827 27.25 102.296 66.353l0.284 0.711h444.998c17.74-39.844 56.987-67.12 102.604-67.12s84.864 27.276 102.32 66.408l0.284 0.712h30.096l76.912 12.234 35.153 205.534-34.174 62.802zM303.652 898.911l6.28 4.486c11.582 8.89 21.614 16.312 66.88 16.312h160.594c24.468 0 31.156-5.301 47.55-18.107 2.773-2.202 5.709-4.486 8.156-6.443l127.969-103.093h-181.8l-17.291 87.27h-40.781l17.209-87.27h-297.861c47.958 51.71 94.937 100.891 103.093 106.845zM240.85 444.044c-39.775 0-72.018 32.244-72.018 72.018s32.244 72.018 72.018 72.018c39.775 0 72.018-32.244 72.018-72.018v0c-0.046-39.756-32.262-71.972-72.014-72.018h-0.004zM891.463 444.044c-39.775 0-72.018 32.244-72.018 72.018s32.244 72.018 72.018 72.018c39.775 0 72.018-32.244 72.018-72.018v0c-0.046-39.756-32.262-71.972-72.014-72.018h-0.004zM1066.33 518.265l-45.266-7.096h-17.862c0 1.631 0 3.262 0 4.894-1.687 60.622-51.232 109.122-112.106 109.122s-110.419-48.5-112.102-108.967l-0.003-0.156c0-1.631 0-3.262 0-4.894h-426.238c0 1.631 0 3.262 0 4.894-0.097 61.819-50.233 111.895-112.065 111.895-59.766 0-108.605-46.786-111.889-105.732l-0.013-0.291-62.313 24.468-25.692 163.612 8.156 22.919 84.008 19.085h643.599l300.063-37.763 17.699-32.624z" />
<glyph unicode="&#xe902;" glyph-name="icon_product_category_2" horiz-adv-x="888" d="M825.235 266.714h-3.166l-2.829-1.212c-58.33-23.978-125.146-51.594-160.777-66.614-10.543 17.12-27.923 29.16-48.24 32.347l-0.39 0.050-231.432 10.171c-86.215 23.844-150.741 32.869-213.516 32.735h-164.885v-33.139h197.755c50.247 0 125.483-18.725 173.642-32.061l1.819-0.539 231.5-9.969c23.372-4.984 30.714-21.89 29.771-36.304-0.808-12.865-8.958-26.942-24.787-28.087-20.611-1.28-77.458-4.85-134.71-8.15-35.833-2.088-71.801-4.109-99.079-5.523l-96.924-4.85 93.085-27.548c12.663-3.705 64.122-14.683 79.277-13.875l-0.876 16.973 24.854 1.414c71.733 4.176 143.399 8.621 144.477 8.689v0.606c26.937 6.283 46.855 29.647 47.819 57.822l0.003 0.103c0 2.223 0 4.445 0 6.736 33.678 14.347 107.162 44.589 160.642 66.614 6.683-0.643 12.531-3.782 16.681-8.46l0.023-0.026c5.927-7.476 6.736-20.813 2.694-38.527-16.771-71.531-303.974-213.179-371.531-217.22v0c-37.382-2.223-338.19 71.935-381.769 84.8-1.484 0.534-3.197 0.842-4.982 0.842-0.356 0-0.71-0.012-1.060-0.037l0.047 0.003c-8.015-0.471-26.268-6.062-88.37-30.108v-35.496c35.968 14.010 76.381 29.367 88.168 32.128 46.542-12.797 345.128-87.562 390.054-84.8v0c71.060 4.243 380.152 150.673 401.773 242.478 6.736 28.559 3.57 51.123-9.295 67.355-11.028 12.697-27.199 20.678-45.233 20.678-0.082 0-0.163 0-0.244 0h0.013zM649.64 960c-48.698 0-92.883-23.709-133.565-50.92-40.682 27.211-85.002 50.92-133.565 50.92-131.612 0-238.639-98.204-238.639-218.837 0-251.235 350.247-420.835 365.132-427.974l7.14-3.435 7.14 3.637c14.683 6.736 360.215 176.672 364.997 427.57 0.009 0.703 0.014 1.534 0.014 2.365 0 56.161-22.874 106.98-59.813 143.649l-0.012 0.012c-45.377 45.126-107.931 73.020-176.999 73.020-0.643 0-1.285-0.002-1.927-0.007l0.099 0.001zM516.075 346.664c-38.46 19.668-220.453 118.343-300.539 260.193h185.968l48.226 125.483 96.722-285.451 55.972 160.17h212.573c-80.826-141.85-260.866-240.66-298.922-260.395zM831.768 640.131h-252.514l-32.33-91.536-95.24 281.14-72.878-189.739h-179.973c-13.49 29.709-21.512 64.386-21.889 100.896l-0.001 0.137c0 102.515 92.479 185.9 205.568 185.9 43.377 0 85.339-24.787 124.203-51.527l9.362-6.736 9.43 6.736c38.797 26.942 80.826 51.527 124.135 51.527 0.468 0.004 1.022 0.006 1.576 0.006 59.811 0 113.992-24.106 153.356-63.133l-0.015 0.015c31.398-30.825 50.857-73.716 50.857-121.153 0-0.409-0.001-0.818-0.004-1.227v0.063c-1.162-36.97-9.753-71.653-24.32-102.996l0.679 1.627z" />
<glyph unicode="&#xe903;" glyph-name="icon_product_category_3" horiz-adv-x="830" d="M80.051 652.525l75.246-88.411 46.046 37.436v-263.924h-48.667v-30.635h604.779v30.573h-48.604v263.924l46.046-37.436 75.246 88.411-375.047 307.537zM514.558 337.564h-118.922v177.634h118.922zM678.154 337.564h-132.96v208.269h-180.254v-208.269h-132.898v288.757l223.056 180.941 223.056-180.941zM750.967 606.791l-295.869 239.84-295.869-239.84-35.564 41.804 331.434 271.723 331.434-271.723zM442.993-63.938v0c65.825 3.931 352.148 139.574 372.176 224.616 6.239 26.392 3.307 47.294-8.61 62.081-10.276 11.792-25.285 19.233-42.034 19.342h-2.951l-2.621-1.123c-54.033-22.274-115.927-47.793-148.933-61.769-9.729 15.894-25.847 27.064-44.693 29.966l-0.355 0.045-214.384 9.484c-79.864 22.087-139.636 30.386-197.787 30.323h-152.801v-30.635h183.187c46.545 0 116.239-17.345 160.85-29.699l1.685-0.499 214.446-9.297c21.65-4.555 28.451-20.278 27.578-33.568-0.749-11.98-8.298-24.957-22.961-26.080-19.092-1.123-71.752-4.43-124.787-7.55-33.193-1.934-66.511-3.806-91.781-5.054l-89.784-4.492 86.228-25.519c11.73-3.494 59.398-13.602 73.437-12.853l-0.811 15.91 23.023 1.373c66.449 3.868 132.835 7.986 133.834 8.049v0.562c24.952 5.82 43.404 27.463 44.297 53.563l0.003 0.096c0 2.059 0 4.118 0 6.239 31.197 13.29 99.268 41.367 148.808 61.769 6.183-0.628 11.59-3.527 15.454-7.839l0.020-0.023c5.491-6.988 6.239-19.28 2.496-35.689-15.536-66.262-281.581-197.537-344.162-201.281v0c-34.628-1.997-313.277 66.699-353.646 78.616-1.428 0.487-3.074 0.768-4.785 0.768-0.27 0-0.539-0.007-0.806-0.021l0.037 0.002c-7.425-0.437-24.333-5.615-81.86-27.89v-32.881c33.318 12.978 70.754 27.141 81.673 29.762 43.114-12.042 319.704-81.236 361.32-78.803z" />
<glyph unicode="&#xe904;" horiz-adv-x="2413" d="M491.427 156.127c0-70.965-57.528-128.493-128.493-128.493s-128.493 57.528-128.493 128.493c0 70.965 57.528 128.493 128.493 128.493s128.493-57.528 128.493-128.493z" />
<glyph unicode="&#xe905;" horiz-adv-x="2413" d="M918.651 845.308v-273.272c-0.029-1.045-0.046-2.275-0.046-3.509 0-15.534 2.654-30.449 7.533-44.315l-0.287 0.935c4.345-12.034 10.45-22.418 18.119-31.43l-0.118 0.142c6.642-7.666 14.602-13.984 23.56-18.649l0.441-0.209c7.1-3.739 15.384-7.043 24.034-9.468l0.91-0.218c5.993-1.681 13.059-2.956 20.312-3.571l0.432-0.030c5.829 0 9.601-0.686 11.229-0.686 0.797-0.021 1.735-0.033 2.676-0.033 14.484 0 28.295 2.878 40.893 8.094l-0.71-0.26c11.488 4.864 21.303 11.519 29.58 19.722l-0.007-0.007c6.952 7.289 12.712 15.793 16.916 25.148l0.228 0.567c3.537 7.374 6.758 16.096 9.182 25.145l0.247 1.085c1.696 6.121 3 13.36 3.652 20.786l0.033 0.472c0.429 6 0.6 9.601 0.6 10.629v272.93h65.575v-439.567h-65.575v61.461c-0.18-7.854-2.058-15.228-5.28-21.826l0.137 0.31c-3.346-6.24-7.43-11.582-12.234-16.179l-0.024-0.022c-4.828-4.516-10.291-8.447-16.217-11.627l-0.412-0.202c-5.175-2.947-11.304-5.831-17.66-8.257l-0.941-0.315c-14.807-5.074-31.971-8.586-49.762-9.822l-0.641-0.036h-15.172c-1.299-0.036-2.828-0.056-4.362-0.056-21.146 0-41.391 3.855-60.071 10.902l1.172-0.388c-16.754 6.533-31.163 15.488-43.596 26.607l0.136-0.12c-10.989 9.935-20.086 21.715-26.853 34.888l-0.32 0.685c-5.695 10.869-10.804 23.583-14.635 36.84l-0.365 1.477c-2.891 9.725-5.13 21.203-6.282 32.999l-0.061 0.774c-0.857 10.115-1.2 17.658-1.2 22.544v278.93z" />
<glyph unicode="&#xe906;" horiz-adv-x="2413" d="M1424.394 848.137c3.257 0 9.086 0 17.572-1.2 10.712-1.217 20.438-3.387 29.749-6.468l-1.033 0.296c12.766-4.083 23.801-9.081 34.118-15.166l-0.773 0.422c12.409-7.204 22.933-16.143 31.647-26.639l0.154-0.191c9.902-12.211 17.955-26.426 23.435-41.859l0.31-1c6.005-17.188 9.474-37.003 9.474-57.628 0-1.408-0.016-2.812-0.048-4.213l0.004 0.208v-145.722c-0.932-27.44-7.632-53.101-18.918-76.106l0.488 1.101c-5.392-10.446-11.257-19.432-17.912-27.759l0.254 0.329c-7.462-9.276-16.113-17.191-25.814-23.655l-0.416-0.261c-10.513-7.158-22.669-13.004-35.666-16.903l-0.936-0.241c-13.783-4.093-29.62-6.449-46.006-6.449-0.913 0-1.824 0.007-2.734 0.022l0.137-0.002c-0.774-0.013-1.688-0.020-2.603-0.020-16.734 0-32.889 2.482-48.115 7.098l1.173-0.306c-14.104 4.35-26.39 10.36-37.501 17.962l0.47-0.304c-10.236 6.961-18.978 15.157-26.297 24.52l-0.19 0.253c-6.453 8.202-12.178 17.497-16.782 27.418l-0.362 0.87c2.4 1.629 6.086 3.857 11.058 6.772l15.515 9.172 15.772 9.258c5.057 2.829 8.572 4.972 11.658 6.343 3.995-11.208 10.805-20.588 19.592-27.592l0.123-0.095c7.366-5.779 15.878-10.562 25.070-13.936l0.645-0.207c9.227-3.361 19.881-5.441 30.979-5.74l0.137-0.003c15.309 1.79 29.183 6.596 41.47 13.813l-0.497-0.27c5.738 3.354 10.705 7.011 15.249 11.126l-0.076-0.068c4.989 4.539 9.324 9.664 12.933 15.298l0.182 0.303c3.744 6.142 6.823 13.24 8.866 20.764l0.134 0.58c2.238 7.825 3.525 16.813 3.525 26.101 0 0.497-0.004 0.994-0.011 1.49l0.001-0.075v145.722c-1.216 16.1-5.166 30.988-11.392 44.619l0.334-0.817c-3.118 6.122-6.45 11.372-10.211 16.276l0.182-0.247c-4.113 5.325-8.83 9.906-14.118 13.75l-0.197 0.137c-5.71 4.119-12.3 7.523-19.369 9.88l-0.517 0.15c-7.479 2.511-16.091 3.959-25.042 3.959-0.568 0-1.135-0.006-1.701-0.017l0.085 0.001c-0.727 0.013-1.584 0.020-2.443 0.020-11.998 0-23.659-1.445-34.817-4.17l1.002 0.207c-10.068-2.425-18.904-6.602-26.611-12.233l0.21 0.146c-7.774-5.817-14.256-12.872-19.271-20.936l-0.187-0.323c-5.511-8.986-10.592-19.386-14.67-30.275l-0.417-1.269h-66.432c2.142 20.216 7.141 38.726 14.617 55.91l-0.473-1.221c7.388 16.579 17.796 30.585 30.64 41.888l0.133 0.115c13.786 11.959 30.157 21.359 48.124 27.235l0.993 0.281c19.447 6.227 41.818 9.816 65.027 9.816 1.549 0 3.094-0.016 4.635-0.048l-0.23 0.004h2.914z" />
<glyph unicode="&#xe907;" horiz-adv-x="2413" d="M1653.521 405.74v336.705c8.604 16.302 18.4 30.366 29.681 43.082l-0.194-0.223c9.796 10.762 20.609 20.297 32.38 28.559l0.622 0.414c9.695 6.885 20.749 13.062 32.454 18l1.148 0.43c8.355 3.616 18.57 7.132 29.080 9.923l1.607 0.363c7.043 1.877 15.473 3.39 24.1 4.233l0.673 0.053c7.115 0.514 12.429 0.771 16.029 0.771h4.115c20.041-0.204 39.31-3.164 57.555-8.519l-1.495 0.376c16.164-4.842 30.234-11.2 43.231-19.141l-0.8 0.454c11.79-7.222 21.897-15.747 30.563-25.572l0.124-0.143c7.65-8.644 14.523-18.305 20.315-28.653l0.429-0.835c4.714-8.483 9.014-18.382 12.351-28.714l0.335-1.202c2.287-6.954 4.628-15.965 6.488-25.15l0.284-1.68c1.204-5.826 2.149-12.845 2.631-19.992l0.027-0.495c0-5.657 0.429-9.258 0.429-10.886v-272.158h-65.575v272.415c0.029 0.985 0.046 2.145 0.046 3.308 0 14.628-2.657 28.636-7.515 41.567l0.268-0.815c-4.399 11.4-10.552 21.19-18.233 29.554l0.061-0.067c-6.798 7.311-14.9 13.303-23.953 17.624l-0.477 0.205c-7.1 3.455-15.478 6.587-24.178 8.936l-1.024 0.235c-6.046 1.763-13.094 3.014-20.353 3.498l-0.306 0.016h-11.229c-0.563 0.009-1.227 0.014-1.893 0.014-11.867 0-23.345-1.664-34.214-4.772l0.876 0.214c-10.072-2.905-18.868-6.94-26.895-12.073l0.408 0.244c-7.226-4.843-13.414-10.514-18.65-16.987l-0.123-0.157c-4.608-5.624-8.768-11.947-12.234-18.686l-0.281-0.601c-7.528-15.183-12.278-32.958-13.105-51.752l-0.010-0.279v-271.644z" />
<glyph unicode="&#xe908;" horiz-adv-x="2413" d="M1983.539 960v-62.661h-244.985v62.661z" />
<glyph unicode="&#xe909;" horiz-adv-x="2413" d="M2260.84 846.937c12.507-1.248 23.918-3.545 34.894-6.849l-1.292 0.334c14.835-4.472 27.646-9.918 39.707-16.558l-1.047 0.529c14.32-7.846 26.467-17.752 36.543-29.487l0.144-0.172c11.429-13.494 20.675-29.282 26.921-46.507l0.338-1.067c6.776-19.091 10.692-41.109 10.692-64.043 0-1.744-0.023-3.484-0.068-5.217l0.005 0.256v-272.415h-65.918v121.721c-3.244 9.192-7.328 17.152-12.317 24.443l0.23-0.356c-5.181 7.452-11.668 13.611-19.183 18.27l-0.276 0.159c-7.026 4.386-15.127 8.090-23.706 10.697l-0.724 0.189c-8.28 2.505-17.797 3.946-27.65 3.946-0.284 0-0.569-0.001-0.852-0.004h0.043c-7.629 0-14.829 0-21.515-0.857-6.694-0.448-12.882-2.203-18.447-5.012l0.274 0.126v67.547c11.343 3.111 24.367 4.898 37.809 4.898 0.661 0 1.32-0.004 1.979-0.013l-0.1 0.001c0.561 0.007 1.223 0.011 1.886 0.011 30.436 0 58.923-8.349 83.294-22.882l-0.746 0.412v44.66c-1.772 20.115-7.182 38.59-15.572 55.311l0.4-0.88c-4.042 7.564-8.391 14.075-13.296 20.117l0.181-0.23c-11.442 13.88-26.623 24.295-44.002 29.738l-0.658 0.178c-9.633 2.997-20.709 4.723-32.188 4.723-0.497 0-0.993-0.003-1.489-0.010l0.075 0.001c-19.522-0.812-37.717-5.724-53.995-13.891l0.764 0.347c-7.407-3.769-13.794-8.075-19.587-13.052l0.129 0.108c-6.6-5.568-12.27-11.946-16.939-19.041l-0.205-0.331c-5.062-7.788-9.191-16.792-11.916-26.386l-0.17-0.701c-2.842-10.144-4.476-21.792-4.476-33.822 0-0.766 0.007-1.531 0.020-2.294l-0.002 0.115h-65.575v4.457c0 4.372 0.429 11.572 1.2 21.515 1.265 12.74 3.654 24.381 7.109 35.555l-0.337-1.267c4.567 15.063 10.128 28.071 16.907 40.311l-0.534-1.052c7.898 14.293 17.796 26.431 29.492 36.547l0.167 0.141c13.565 11.436 29.399 20.731 46.657 27.080l1.088 0.35c19.355 6.886 41.681 10.866 64.936 10.866 1.792 0 3.579-0.024 5.359-0.071l-0.263 0.005h4.115c4.543 0 11.658-0.343 21.687-1.2z" />
<glyph unicode="&#xe90a;" horiz-adv-x="2413" d="M1036.515 277.762v-241.213c-1.231-15.653-5.785-30.006-12.953-42.686l0.267 0.513c-3.305-5.846-6.938-10.9-11.050-15.518l0.078 0.089c-4.696-5.182-10.053-9.64-15.97-13.277l-0.317-0.181c-6.435-3.853-13.867-7.072-21.725-9.274l-0.647-0.155c-8.866-2.287-19.045-3.6-29.53-3.6s-20.664 1.313-30.381 3.783l0.85-0.183c-8.505 2.357-15.938 5.576-22.795 9.662l0.422-0.233c-6.233 3.818-11.591 8.276-16.232 13.396l-0.055 0.061c-3.997 4.537-7.627 9.588-10.733 14.979l-0.239 0.451c-6.896 12.167-11.401 26.537-12.496 41.849l-0.019 0.325v153.78h34.973v-153.78c-0.006-0.293-0.009-0.639-0.009-0.986 0-5.557 0.881-10.909 2.512-15.922l-0.102 0.364c2.87-8.77 8.333-16.034 15.472-21.086l0.129-0.087c3.017-2.142 6.457-4.066 10.099-5.608l0.359-0.135c8.332-3.881 18.088-6.145 28.373-6.145s20.041 2.264 28.797 6.321l-0.424-0.176c3.967 1.677 7.378 3.601 10.537 5.855l-0.165-0.112c3.516 2.449 6.537 5.279 9.106 8.487l0.066 0.085c2.722 3.519 4.911 7.62 6.349 12.059l0.080 0.284c1.58 4.723 2.491 10.161 2.491 15.812 0 0.257-0.002 0.514-0.006 0.77v-0.039 241.471z" />
<glyph unicode="&#xe90b;" horiz-adv-x="2413" d="M1231.612 131.611l-14.401 9.601c-3.433 2.207-7.453 4.409-11.626 6.338l-0.632 0.262c-3.633 1.812-8.137 3.696-12.766 5.31l-0.863 0.262c-3.515 1.337-7.873 2.634-12.342 3.641l-0.687 0.13c-2.977 0.725-6.424 1.189-9.962 1.284l-0.067 0.001c-0.050 0-0.109 0-0.168 0-5.518 0-10.912-0.53-16.134-1.543l0.531 0.086c-4.932-0.894-9.317-2.723-13.151-5.306l0.122 0.078c-3.911-2.604-7.010-6.142-9.019-10.304l-0.067-0.154c-2.18-4.637-3.453-10.071-3.453-15.802 0-0.472 0.009-0.942 0.026-1.41l-0.002 0.068c-0.023-0.384-0.036-0.833-0.036-1.286 0-5.933 2.224-11.347 5.885-15.453l-0.020 0.023c4.13-4.118 9.179-7.317 14.812-9.261l0.274-0.082c5.998-2.268 13.025-4.067 20.303-5.083l0.526-0.060c7.715-1.2 15.429-2.4 23.144-3.772 8.361-1.434 15.848-4.125 22.65-7.9l-0.364 0.185c7.272-3.967 13.51-8.73 18.927-14.297l0.017-0.018c5.269-5.535 9.666-11.963 12.934-19.021l0.181-0.437c3.087-6.73 4.887-14.6 4.887-22.891 0-0.089 0-0.178-0.001-0.267v0.014c0.010-0.456 0.016-0.993 0.016-1.532 0-10.853-2.407-21.144-6.716-30.368l0.185 0.441c-4.31-8.791-10.334-16.132-17.69-21.84l-0.14-0.104c-7.513-5.688-16.361-10.084-25.955-12.651l-0.532-0.121c-9.539-2.668-20.493-4.201-31.805-4.201-0.15 0-0.299 0-0.449 0.001h0.023c-1.031-0.029-2.245-0.045-3.463-0.045-24.087 0-46.684 6.376-66.196 17.533l0.654-0.345c-8.283 4.678-15.355 10.384-21.362 17.067l-0.068 0.076 23.144 22.716c3.299-3.13 6.945-5.959 10.855-8.404l0.288-0.168c4.515-2.836 9.735-5.485 15.198-7.655l0.66-0.231c5.29-2.133 11.655-4.082 18.215-5.509l0.815-0.149c6.26-1.415 13.449-2.226 20.828-2.229h0.002c0.208-0.002 0.453-0.004 0.698-0.004 6.809 0 13.383 1.004 19.583 2.871l-0.48-0.124c5.792 1.697 10.825 4.371 15.171 7.866l-0.084-0.065c3.935 3.172 7.135 7.085 9.421 11.543l0.093 0.2c2.057 4.328 3.259 9.404 3.259 14.761 0 0.114-0.001 0.229-0.002 0.343v-0.017c0.014 0.346 0.023 0.752 0.023 1.159 0 4.623-1.052 9-2.929 12.906l0.078-0.179c-1.658 3.389-3.91 6.244-6.646 8.539l-0.040 0.033c-2.192 1.804-4.753 3.26-7.54 4.233l-0.174 0.053-6.172 1.629-7.115 1.2-29.745 4.886c-5.315 0.857-9.258 1.629-11.829 2.229-2.925 0.512-5.435 1.136-7.876 1.915l0.418-0.115c-8.547 2.722-15.976 6.604-22.569 11.541l0.196-0.14c-4.208 3.217-7.805 6.951-10.78 11.156l-0.107 0.159c-3.359 4.717-6.078 10.184-7.867 16.057l-0.105 0.401c-1.965 6.239-3.097 13.413-3.097 20.852 0 0.444 0.004 0.888 0.012 1.33l-0.001-0.066c-0.022 0.653-0.034 1.421-0.034 2.192 0 10.919 2.511 21.252 6.988 30.452l-0.182-0.414c4.291 8.622 10.253 15.819 17.516 21.41l0.143 0.105c6.979 5.394 15.235 9.531 24.209 11.894l0.478 0.107c8.322 2.375 17.882 3.75 27.761 3.772h0.012c0.256 0.002 0.558 0.004 0.861 0.004 9.047 0 17.817-1.19 26.16-3.422l-0.706 0.161c8.246-2.235 15.117-4.634 21.77-7.446l-1.112 0.417c7.026-2.969 13.057-6.328 18.671-10.245l-0.327 0.216 17.915-12.344z" />
<glyph unicode="&#xe90c;" horiz-adv-x="2413" d="M1326.674 171.385v-17.144h61.375v-32.745h-78.69c-0.244-0.015-0.528-0.023-0.815-0.023-2.878 0-5.56 0.839-7.814 2.286l0.058-0.035c-1.934 1.416-3.495 3.224-4.589 5.316l-0.040 0.085c-1.166 2.295-1.935 4.979-2.139 7.819l-0.004 0.068v34.373zM1326.674 29.177v-17.144h61.375v-32.83h-78.69c-0.256-0.017-0.555-0.026-0.856-0.026-2.876 0-5.548 0.875-7.765 2.372l0.049-0.031c-1.934 1.416-3.495 3.224-4.589 5.316l-0.040 0.085c-1.166 2.269-1.935 4.923-2.139 7.734l-0.004 0.067v34.802z" />
<glyph unicode="&#xe90d;" horiz-adv-x="2413" d="M1441.109-42.913v180.010c4.72 8.598 10.066 16.021 16.194 22.717l-0.079-0.087c5.071 5.835 10.694 10.968 16.854 15.402l0.29 0.199c5.171 3.703 11.066 7.008 17.316 9.634l0.599 0.223c4.436 1.91 9.885 3.785 15.488 5.285l0.885 0.201c3.706 0.972 8.194 1.787 12.78 2.278l0.421 0.037c3.772 0 6.686 0 8.572 0h2.143c10.714-0.166 20.99-1.752 30.739-4.576l-0.823 0.204c8.615-2.544 16.122-5.93 23.042-10.179l-0.412 0.235c6.276-3.851 11.665-8.367 16.312-13.56l0.061-0.069c4.081-4.622 7.746-9.79 10.829-15.325l0.229-0.447c2.522-4.524 4.817-9.8 6.595-15.309l0.177-0.635c1.285-3.832 2.531-8.642 3.479-13.558l0.121-0.757c0.621-3.039 1.138-6.764 1.436-10.552l0.021-0.335c0-3 0-4.972 0-5.829v-145.208h-34.973v145.722c0.020 0.589 0.031 1.281 0.031 1.975 0 7.72-1.394 15.114-3.945 21.945l0.142-0.433c-2.394 6.093-5.699 11.325-9.806 15.81l0.034-0.038c-3.605 3.864-7.897 7.032-12.69 9.32l-0.254 0.109c-3.788 1.861-8.259 3.557-12.902 4.841l-0.556 0.131c-3.263 0.961-7.044 1.606-10.944 1.796l-0.113 0.004h-6c-0.357 0.007-0.779 0.011-1.201 0.011-6.255 0-12.305-0.88-18.032-2.524l0.46 0.113c-5.345-1.523-10.017-3.689-14.254-6.464l0.196 0.12c-3.893-2.398-7.226-5.241-10.070-8.519l-0.045-0.053c-2.411-2.998-4.604-6.369-6.444-9.952l-0.156-0.334c-4.048-8.1-6.595-17.59-7.024-27.629l-0.005-0.144v-145.808z" />
<glyph unicode="&#xe90e;" horiz-adv-x="2413" d="M1572.688 270.047v-17.144h87.776v-32.745h-105.092c-0.221-0.012-0.479-0.019-0.738-0.019-2.914 0-5.625 0.871-7.887 2.367l0.053-0.033c-1.888 1.405-3.418 3.182-4.502 5.23l-0.041 0.084c-1.14 2.295-1.93 4.967-2.22 7.786l-0.008 0.1v34.373z" />
<glyph unicode="&#xe90f;" horiz-adv-x="2413" d="M1740.611 191.871v-145.722c-0.016-0.567-0.026-1.235-0.026-1.905 0-8.283 1.422-16.233 4.036-23.621l-0.153 0.495c2.274-6.59 5.537-12.286 9.67-17.229l-0.069 0.085c3.534-4.078 7.77-7.438 12.537-9.918l0.235-0.111c3.8-1.975 8.241-3.729 12.873-5.024l0.499-0.119c3.155-0.898 6.888-1.595 10.719-1.952l0.253-0.019h6.086c0.498-0.016 1.084-0.025 1.671-0.025 7.655 0 14.947 1.553 21.579 4.362l-0.363-0.137c6.036 2.537 11.189 6.041 15.515 10.372v0c3.884 3.829 7.081 8.343 9.398 13.347l0.117 0.282c1.864 3.906 3.59 8.55 4.914 13.36l0.144 0.612c0.852 3.229 1.548 7.108 1.945 11.075l0.026 0.326q0 4.715 0 5.657v145.722h34.973v-234.699h-34.973v32.83c-0.183-4.22-1.271-8.146-3.074-11.643l0.074 0.157c-1.794-3.308-3.993-6.137-6.581-8.554l-0.019-0.018c-2.482-2.436-5.299-4.543-8.374-6.243l-0.198-0.101c-2.732-1.48-6.012-2.953-9.403-4.198l-0.541-0.174c-7.884-2.697-17.021-4.56-26.492-5.21l-0.338-0.019h-8.143c-0.665-0.017-1.448-0.027-2.234-0.027-11.321 0-22.162 2.053-32.172 5.807l0.632-0.208c-8.918 3.475-16.59 8.227-23.221 14.125l0.077-0.067c-5.815 5.348-10.659 11.641-14.309 18.655l-0.178 0.375c-3.026 5.786-5.741 12.556-7.778 19.614l-0.194 0.787c-1.553 5.202-2.762 11.346-3.394 17.661l-0.034 0.426c-0.429 5.4-0.6 9.343-0.6 12.001v148.808z" />
<glyph unicode="&#xe910;" horiz-adv-x="2413" d="M2096.003 186.214c9.911-4.061 18.427-9.496 25.787-16.179l-0.072 0.064c6.298-5.773 11.565-12.544 15.576-20.084l0.196-0.403c3.373-5.989 6.293-12.93 8.399-20.216l0.173-0.699c1.503-4.975 2.625-10.807 3.148-16.811l0.023-0.333c0-4.886 0.6-7.8 0.6-9.001v-145.465h-35.145v145.722c0.016 0.528 0.025 1.15 0.025 1.773 0 7.796-1.424 15.26-4.025 22.145l0.143-0.431c-2.366 6.090-5.644 11.323-9.723 15.814l0.037-0.041c-3.605 3.864-7.897 7.032-12.69 9.32l-0.254 0.109c-3.754 1.88-8.168 3.576-12.759 4.847l-0.528 0.125c-3.263 0.961-7.044 1.606-10.944 1.796l-0.113 0.004h-6c-0.357 0.007-0.779 0.011-1.201 0.011-6.255 0-12.305-0.88-18.032-2.524l0.46 0.113c-5.378-1.55-10.076-3.714-14.355-6.471l0.212 0.128c-3.881-2.42-7.211-5.259-10.071-8.521l-0.044-0.051c-2.505-3.001-4.755-6.374-6.625-9.976l-0.147-0.311c-4.127-8.088-6.685-17.594-7.026-27.661l-0.003-0.112v-145.808h-56.575v32.83h21.687v147.18c8.005 15.565 19.255 28.433 32.931 38.097l0.328 0.22c5.17 3.68 11.063 6.983 17.303 9.627l0.613 0.231c4.409 1.888 9.858 3.762 15.455 5.275l0.917 0.211c3.742 0.983 8.262 1.798 12.88 2.28l0.407 0.034c3.772 0 6.6 0 8.572 0h2.229c0.138 0.001 0.301 0.001 0.465 0.001 13.568 0 26.549-2.516 38.501-7.107l-0.735 0.248z" />
<glyph unicode="&#xe911;" horiz-adv-x="2413" d="M2096.946 270.047v-17.144h87.862v-32.745h-105.092c-0.221-0.012-0.479-0.019-0.738-0.019-2.914 0-5.625 0.871-7.887 2.367l0.053-0.033c-1.913 1.406-3.47 3.182-4.587 5.232l-0.041 0.083c-1.114 2.299-1.876 4.974-2.136 7.795l-0.007 0.092v34.373z" />
<glyph unicode="&#xe912;" horiz-adv-x="2413" d="M2407.591 191.871v-168.695c0.015-0.526 0.023-1.144 0.023-1.765 0-8.609-1.613-16.841-4.552-24.411l0.157 0.46c-2.761-6.944-6.526-12.911-11.187-18.050l0.044 0.049c-4.232-4.671-9.188-8.588-14.709-11.598l-0.292-0.146c-4.541-2.463-9.85-4.704-15.387-6.428l-0.642-0.172c-3.871-1.273-8.503-2.351-13.263-3.033l-0.452-0.053c-2.463-0.376-5.421-0.652-8.42-0.767l-0.152-0.005h-43.717c-0.623-0.013-1.357-0.021-2.093-0.021-9.743 0-19.178 1.322-28.135 3.795l0.741-0.175c-7.794 2.187-14.61 5.412-20.728 9.584l0.241-0.155c-5.202 3.542-9.603 7.806-13.182 12.708l-0.105 0.15c-2.919 4.073-5.408 8.746-7.241 13.735l-0.131 0.409c-1.52 3.81-2.665 8.242-3.231 12.852l-0.026 0.263c-0.428 2.881-0.706 6.262-0.77 9.695l-0.001 0.077c-0.020 0.526-0.032 1.144-0.032 1.764 0 7.876 1.847 15.32 5.132 21.924l-0.129-0.286c3.083 5.897 6.918 10.935 11.46 15.233l0.027 0.025c3.5 3.292 7.473 6.144 11.791 8.43l0.295 0.142c3.857 1.886 6.172 3 7.029 3.257-4.641 0.88-8.777 2.367-12.578 4.4l0.234-0.114c-3.565 1.923-6.617 4.265-9.244 7.015l-0.013 0.014c-2.509 2.512-4.72 5.323-6.575 8.374l-0.111 0.197c-1.53 2.515-3.106 5.525-4.499 8.635l-0.215 0.537c-2.843 7.012-4.717 15.131-5.219 23.619l-0.010 0.211c-0.007 0.422-0.011 0.92-0.011 1.419 0 7.462 0.879 14.719 2.538 21.672l-0.127-0.633c1.538 6.496 3.747 12.211 6.614 17.519l-0.185-0.375c2.574 4.627 5.622 8.604 9.164 12.078l0.008 0.008c3.113 3.228 6.6 6.060 10.4 8.438l0.229 0.134c8.257 4.932 18.115 8.050 28.656 8.566l0.146 0.006h46.803v-32.745h-28.116c-0.26 0.004-0.566 0.007-0.873 0.007-4.589 0-9.045-0.565-13.304-1.63l0.377 0.080c-3.874-0.995-7.268-2.375-10.417-4.14l0.216 0.111c-2.751-1.635-5.118-3.538-7.186-5.727l-0.015-0.016c-1.83-1.884-3.447-3.992-4.801-6.274l-0.085-0.155c-2.839-4.938-4.667-10.789-5.052-17.031l-0.006-0.113c-0.011-0.318-0.017-0.692-0.017-1.068 0-4.946 1.047-9.647 2.932-13.894l-0.087 0.219c1.883-3.866 4.326-7.159 7.269-9.927l0.017-0.016c2.692-2.442 5.806-4.485 9.208-5.998l0.222-0.088c5.169-2.281 11.165-3.838 17.455-4.358l0.203-0.013h31.887v-32.745h-27.944c-0.348 0.008-0.757 0.013-1.167 0.013-5.174 0-10.171-0.756-14.887-2.165l0.368 0.094c-4.021-1.212-7.525-2.966-10.649-5.215l0.106 0.072c-2.601-1.833-4.77-4.084-6.457-6.678l-0.057-0.094c-1.3-2.068-2.432-4.45-3.274-6.964l-0.069-0.236c-0.646-1.758-1.103-3.796-1.28-5.914l-0.006-0.086c0-1.714 0-2.829 0-3.429-0.011-0.347-0.017-0.755-0.017-1.165 0-4.874 0.886-9.542 2.507-13.85l-0.089 0.271c1.463-3.796 3.556-7.046 6.181-9.782l-0.010 0.010c2.378-2.496 5.225-4.519 8.404-5.934l0.168-0.067c2.445-1.276 5.294-2.389 8.272-3.189l0.3-0.069c2.202-0.518 4.787-0.885 7.432-1.024l0.111-0.005h47.746c0.595-0.039 1.291-0.060 1.991-0.060 6.476 0 12.513 1.875 17.6 5.111l-0.133-0.079c4.344 3.030 7.927 6.832 10.622 11.237l0.093 0.163c2.702 4.777 4.634 10.36 5.458 16.297l0.028 0.247v167.495z" />
<glyph unicode="&#xe913;" horiz-adv-x="2413" d="M847.59 348.823h1565.316v-27.773h-1565.316v27.773z" />
<glyph unicode="&#xe914;" horiz-adv-x="2413" d="M0.429 311.45s1.972-41.059 3-49.888c22.373-180.010 168.352-320.418 346.734-325.732h15.601c46.882 2.721 90.701 12.361 131.599 27.925l-3.021-1.009c132.35 55.46 225.698 189.953 225.698 347.162-0.072 1.153-0.113 2.5-0.113 3.857s0.041 2.704 0.122 4.041l-0.009-0.184c0.771 47.403-7.115 320.418-281.244 476.769-7.115 4.029-10.458 6.257-21.515 13.544 0 0-36.345 23.316-41.059 60.003 0 0-115.292-61.975-122.664-235.042 4.006-92.619 45.023-174.936 108.526-233.1l0.251-0.227s54.26-51.431 87.776-77.147c0 0 87.862-70.29 87.862-165.952 0-96.576-78.291-174.867-174.867-174.867s-174.867 78.291-174.867 174.867v0c0.463 21.805 4.382 42.545 11.227 61.902l-0.427-1.384 19.715 42.002c20.746 38.052 32.944 83.342 32.944 131.481 0 5.613-0.166 11.187-0.493 16.718l0.036-0.762s-2.657 132.007-157.637 207.697l-18.43 6.858c0.917-5.241 1.442-11.275 1.442-17.432 0-18.419-4.693-35.743-12.948-50.84l0.277 0.554s-70.204-113.149-63.518-241.813z" />
<glyph unicode="&#xe915;" glyph-name="icon_product_category_4" horiz-adv-x="831" d="M643.354 573.114v159.122h-40.561v74.881h-105.458v149.762h-84.865v-79.873h-78.001v-69.889h-112.322v-74.881h-41.185v-162.243l-59.281-15.6 1.872-14.976c0.624-3.12 42.433-285.796 287.668-286.42 2.496 0 9.36-0.624 19.344-0.624 36.193 0 114.194 7.488 179.091 61.777 59.281 49.921 92.353 127.298 97.97 228.388l0.624 13.728-64.897 16.848zM463.639 923.807v-116.69h-17.472v116.69h17.472zM367.542 843.31h17.472v-36.193h-17.472v36.193zM255.22 774.045h313.877v-41.809h-313.877v41.809zM214.659 699.164h395.622v-117.314l-189.699 48.673-205.923-52.417v121.058zM420.583 596.202l253.348-65.521c-1.248-18.096-4.368-35.569-7.488-51.793l-242.116 68.641-252.1-66.145c-6.864 19.968-10.608 37.441-13.104 48.673l261.46 66.145zM589.065 339.734c-74.881-63.649-174.099-53.665-174.723-53.665h-1.872c-131.042 0-196.563 89.857-227.764 163.491l239.62 63.025 234.004-66.145c-14.976-44.305-38.065-79.873-69.265-106.706zM443.047-64v0c66.145 3.744 351.941 139.778 371.91 224.644 6.24 26.208 3.12 47.425-8.736 62.401-10.608 12.48-26.208 19.344-41.809 19.344h-3.12l-2.496-1.248c-54.289-22.464-116.066-48.049-149.138-61.777-9.984 16.224-26.208 27.456-44.929 29.952l-214.659 9.36c-79.873 21.84-139.778 30.576-197.811 30.576h-152.258v-30.576h183.459c46.801 0 116.066-17.472 160.995-29.952l1.872-0.624 214.659-9.36c21.84-4.368 28.704-20.592 27.456-33.697-0.624-11.856-8.112-24.96-23.088-26.208-19.344-1.248-71.761-4.368-124.802-7.488-33.073-1.872-66.769-3.744-91.729-4.992l-89.857-4.368 86.113-25.584c11.856-3.744 59.281-13.728 73.633-13.104l-0.624 16.224 23.088 1.248c66.769 3.744 132.914 8.112 134.162 8.112v0.624c24.96 5.616 43.681 28.080 44.305 53.665 0 1.872 0 4.368 0 6.24 31.2 13.104 99.218 41.185 148.514 61.777 6.24-0.624 11.232-3.12 15.6-8.112 5.616-6.864 6.24-19.344 2.496-35.569-15.6-66.145-281.428-197.811-344.453-201.555v0c-34.945-1.872-313.253 66.769-353.814 78.625-1.872 0.624-3.744 0.624-5.616 0.624-7.488-0.624-24.336-5.616-81.745-28.080v-33.073c33.073 13.104 70.513 27.456 81.745 29.952 42.433-11.232 318.869-80.497 360.678-78.001z" />
</font>
</defs>
</svg>
